The Martian 2015 2-in-1 2160p UHD Blu-ray HDR HEVC Atmos TrueHD 7.1-FREQUENCY

The Martian 2015 2-in-1 Theatrical&Extended Cut 2160p UHD Blu-ray HDR HEVC Atmos TrueHD 7.1-FREQUENCY

Disc Title: The.Martian.2015.EXTENDED.COMPLETE.UHD.BLURAY-FREQUENCY
Disc Size: 59,005,092,879 bytes
Protection: AACS2
BD-Java: Yes
Extras: Ultra HD
BDInfo: 0.5.8.6

PLAYLIST REPORT:

Name: 00801.MPLS
Length: 2:31:20.654 (h:m:s.ms)
Size: 52,356,329,472 bytes
Total Bitrate: 46.13 Mbps

(*) Indicates included stream hidden by this playlist.

VIDEO:

Codec Bitrate Description
----- ------- -----------
MPEG-H HEVC Video 34658 kbps 2160p / 23.976 fps / 16:9 / Main 10 Profile 5.1 High / 4:2:0 / 10 bits / HDR / BT.2020 /

AUDIO:

Codec Language Bitrate Description
----- -------- ------- -----------
Dolby Atmos/TrueHD Audio English 6054 kbps 7.1-Atmos / 48 kHz / 6054 kbps / 24-bit (AC3 Core: 5.1 / 48 kHz / 640 kbps)
Dolby Digital Audio Spanish 448 kbps 5.1 / 48 kHz / 448 kbps
Dolby Digital Audio French 448 kbps 5.1 / 48 kHz / 448 kbps
Dolby Digital Audio English 224 kbps 2.0 / 48 kHz / 224 kbps
* Dolby Digital Audio English 448 kbps 5.1 / 48 kHz / 448 kbps
* Dolby Digital Audio English 224 kbps 2.0 / 48 kHz / 224 kbps

SUBTITLES:

Codec Language Bitrate Description
----- -------- ------- -----------
Presentation Graphics English 39.083 kbps
Presentation Graphics Spanish 32.1 kbps
Presentation Graphics French 34.527 kbps
Presentation Graphics English 73.238 kbps
Presentation Graphics Spanish 62.073 kbps
Presentation Graphics French 57.818 kbps
Presentation Graphics English 0.152 kbps
* Presentation Graphics English -9.22337e+015 kbps
* Presentation Graphics Spanish -9.22337e+015 kbps
* Presentation Graphics French -9.22337e+015 kbps

FILES:

Name Time In Length Size Total Bitrate
---- ------- ------ ---- -------------
00063.M2TS 0:00:00.000 0:00:23.231 132,360,192 45,579 kbps
00064.M2TS 0:00:23.231 0:17:48.817 6,059,716,608 45,356 kbps
00104.M2TS 0:18:12.049 0:01:51.361 644,481,024 46,298 kbps
00065.M2TS 0:20:03.410 0:00:40.915 232,077,312 45,376 kbps
00105.M2TS 0:20:44.326 0:00:35.618 201,314,304 45,215 kbps
00116.M2TS 0:21:19.945 0:15:01.650 5,232,537,600 46,426 kbps
00080.M2TS 0:36:21.596 0:01:42.060 568,006,656 44,523 kbps
00066.M2TS 0:38:03.656 0:02:04.499 731,111,424 46,979 kbps
00106.M2TS 0:40:08.155 0:01:01.519 346,914,816 45,112 kbps
00067.M2TS 0:41:09.675 0:08:07.904 2,840,868,864 46,580 kbps
00107.M2TS 0:49:17.579 0:01:03.438 368,406,528 46,458 kbps
00068.M2TS 0:50:21.017 0:07:42.378 2,682,408,960 46,410 kbps
00108.M2TS 0:58:03.396 0:00:39.456 223,586,304 45,333 kbps
00069.M2TS 0:58:42.852 0:14:26.532 5,032,968,192 46,465 kbps
00109.M2TS 1:13:09.384 0:01:06.816 387,796,992 46,431 kbps
00070.M2TS 1:14:16.201 0:01:49.150 630,011,904 46,175 kbps
00110.M2TS 1:16:05.352 0:00:32.031 181,487,616 45,326 kbps
00071.M2TS 1:16:37.384 0:00:46.755 268,781,568 45,989 kbps
00111.M2TS 1:17:24.139 0:02:06.501 719,486,976 45,500 kbps
00072.M2TS 1:19:30.640 0:06:49.075 2,375,903,232 46,463 kbps
00112.M2TS 1:26:19.715 0:07:37.331 2,503,090,176 43,785 kbps
00076.M2TS 1:33:57.047 0:03:23.828 1,172,815,872 46,031 kbps
00113.M2TS 1:37:20.876 0:00:45.503 257,544,192 45,278 kbps
00077.M2TS 1:38:06.380 0:15:13.579 5,310,203,904 46,500 kbps
00114.M2TS 1:53:19.959 0:02:11.089 754,225,152 46,028 kbps
00078.M2TS 1:55:31.048 0:02:38.324 907,407,360 45,850 kbps
00115.M2TS 1:58:09.373 0:03:13.651 1,111,031,808 45,898 kbps
00079.M2TS 2:01:23.025 0:29:57.629 10,479,783,936 46,638 kbps

PLAYLIST REPORT:

Name: 00800.MPLS
Length: 2:21:37.613 (h:m:s.ms)
Size: 49,165,019,136 bytes
Total Bitrate: 46.29 Mbps

(*) Indicates included stream hidden by this playlist.

VIDEO:

Codec Bitrate Description
----- ------- -----------
MPEG-H HEVC Video 34736 kbps 2160p / 23.976 fps / 16:9 / Main 10 Profile 5.1 High / 4:2:0 / 10 bits / HDR / BT.2020 /

AUDIO:

Codec Language Bitrate Description
----- -------- ------- -----------
Dolby Atmos/TrueHD Audio English 6116 kbps 7.1-Atmos / 48 kHz / 6116 kbps / 24-bit (AC3 Core: 5.1 / 48 kHz / 640 kbps)
Dolby Digital Audio English 448 kbps 5.1 / 48 kHz / 448 kbps
Dolby Digital Audio Spanish 448 kbps 5.1 / 48 kHz / 448 kbps
Dolby Digital Audio French 448 kbps 5.1 / 48 kHz / 448 kbps
Dolby Digital Audio English 224 kbps 2.0 / 48 kHz / 224 kbps
* Dolby Digital Audio English 224 kbps 2.0 / 48 kHz / 224 kbps

SUBTITLES:

Codec Language Bitrate Description
----- -------- ------- -----------
Presentation Graphics English 39.605 kbps
Presentation Graphics Spanish 32.224 kbps
Presentation Graphics French 34.684 kbps
Presentation Graphics English 75.823 kbps
Presentation Graphics Spanish 64.119 kbps
Presentation Graphics French 59.452 kbps
Presentation Graphics English 0.163 kbps
* Presentation Graphics French -9.22337e+015 kbps
* Presentation Graphics English -9.22337e+015 kbps
* Presentation Graphics Spanish -9.22337e+015 kbps

Download

The.Martian.2015.EXTENDED.COMPLETE.UHD.BLURAY-FREQUENCY.rar - 55.0 GiB

No Comments Yet.

Leave a comment