The Huntsman: Winter’s War 2016 2160p UHD Blu-ray HEVC DTS-HD MA 7 1-TERMiNAL

The Huntsman: Winter's War 2016 2160p UHD Blu-ray HEVC DTS-HD MA 7 1-TERMiNAL

Disc Title: The.Huntsman.Winters.War.2016.COMPLETE.UHD.BLURAY-TERMiNAL
Disc Size: 63,047,977,531 bytes
Protection: AACS2
BD-Java: Yes
Extras: Ultra HD
BDInfo: 0.5.8.2 (compatible layout created by DVDFab 10.0.4.6)

PLAYLIST REPORT:

Name: 00016.MPLS
Length: 2:00:10.286 (h:m:s.ms)
Size: 56,067,078,144 bytes
Total Bitrate: 62.21 Mbps

VIDEO:

Codec Bitrate Description
----- ------- -----------
MPEG-H HEVC Video 52933 kbps 2160p / 23.976 fps / 16:9 / Main 10 Profile 5.1 High / 4:2:0 / 10 bits / HDR / BT.2020 /

AUDIO:

Codec Language Bitrate Description
----- -------- ------- -----------
DTS:X/DTS-HD Master Audio English 3672 kbps 7.1-X / 48 kHz / 3672 kbps / 24-bit (DTS Core: 5.1 / 48 kHz / 1509 kbps / 24-bit)
DTS Audio English 384 kbps 2.0 / 48 kHz / 384 kbps / 24-bit
DTS Audio Spanish 768 kbps 5.1 / 48 kHz / 768 kbps / 24-bit
DTS Audio French 768 kbps 5.1 / 48 kHz / 768 kbps / 24-bit
Dolby Digital Audio English 192 kbps 2.0 / 48 kHz / 192 kbps / Dolby Surround

SUBTITLES:

Codec Language Bitrate Description
----- -------- ------- -----------
Presentation Graphics English 22.392 kbps
Presentation Graphics Spanish 18.185 kbps
Presentation Graphics French 18.817 kbps
Presentation Graphics Spanish 63.123 kbps
Presentation Graphics French 25.324 kbps

FILES:

Name Time In Length Size Total Bitrate
---- ------- ------ ---- -------------
00000.M2TS 0:00:00.000 0:26:32.048 12,368,179,200 62,149 kbps
00002.M2TS 0:26:32.048 0:10:21.037 4,843,001,856 62,385 kbps
00003.M2TS 0:36:53.085 0:04:02.575 1,882,484,736 62,083 kbps
00005.M2TS 0:40:55.661 0:02:26.938 1,132,462,080 61,656 kbps
00006.M2TS 0:43:22.599 0:09:06.379 4,269,828,096 62,518 kbps
00008.M2TS 0:52:28.979 0:02:37.365 1,209,845,760 61,504 kbps
00009.M2TS 0:55:06.344 0:36:54.378 17,272,147,968 62,399 kbps
00011.M2TS 1:32:00.723 0:03:18.656 1,549,314,048 62,391 kbps
00012.M2TS 1:35:19.380 0:24:01.356 11,267,131,392 62,536 kbps
00014.M2TS 1:59:20.736 0:00:35.160 239,265,792 54,440 kbps
00015.M2TS 1:59:55.896 0:00:14.389 33,417,216 18,578 kbps

PLAYLIST REPORT:

Name: 00014.MPLS
Length: 1:53:57.538 (h:m:s.ms)
Size: 53,126,731,776 bytes
Total Bitrate: 62.16 Mbps

VIDEO:

Codec Bitrate Description
----- ------- -----------
MPEG-H HEVC Video 52933 kbps 2160p / 23.976 fps / 16:9 / Main 10 Profile 5.1 High / 4:2:0 / 10 bits / HDR / BT.2020 /

AUDIO:

Codec Language Bitrate Description
----- -------- ------- -----------
DTS:X/DTS-HD Master Audio English 3672 kbps 7.1-X / 48 kHz / 3672 kbps / 24-bit (DTS Core: 5.1 / 48 kHz / 1509 kbps / 24-bit)
DTS Audio English 384 kbps 2.0 / 48 kHz / 384 kbps / 24-bit
DTS Audio Spanish 768 kbps 5.1 / 48 kHz / 768 kbps / 24-bit
DTS Audio French 768 kbps 5.1 / 48 kHz / 768 kbps / 24-bit
Dolby Digital Audio English 192 kbps 2.0 / 48 kHz / 192 kbps / Dolby Surround

SUBTITLES:

Codec Language Bitrate Description
----- -------- ------- -----------
Presentation Graphics English 22.392 kbps
Presentation Graphics Spanish 18.185 kbps
Presentation Graphics French 18.817 kbps
Presentation Graphics Spanish 63.123 kbps
Presentation Graphics French 25.324 kbps

FILES:

Name Time In Length Size Total Bitrate
---- ------- ------ ---- -------------
00000.M2TS 0:00:00.000 0:26:32.048 12,368,179,200 62,149 kbps
00001.M2TS 0:26:32.048 0:06:16.542 2,934,214,656 62,340 kbps
00003.M2TS 0:32:48.591 0:04:02.575 1,882,484,736 62,083 kbps
00004.M2TS 0:36:51.167 0:01:52.946 869,419,008 61,581 kbps
00006.M2TS 0:38:44.113 0:09:06.379 4,269,828,096 62,518 kbps
00007.M2TS 0:47:50.492 0:02:18.138 1,060,681,728 61,427 kbps
00009.M2TS 0:50:08.630 0:36:54.378 17,272,147,968 62,399 kbps
00010.M2TS 1:27:03.009 0:02:23.226 1,121,734,656 62,655 kbps
00012.M2TS 1:29:26.235 0:24:01.356 11,267,131,392 62,536 kbps
00013.M2TS 1:53:27.592 0:00:15.557 47,493,120 24,422 kbps
00015.M2TS 1:53:43.149 0:00:14.389 33,417,216 18,578 kbps

Download

The.Huntsman.Winters.War.2016.COMPLETE.UHD.BLURAY-TERMiNAL.rar - 58.7 GiB

No Comments Yet.

Leave a comment