Despicable Me 2010 2160p UHD Blu-ray HEVC DTS-HD MA 7.1-SUPERSIZE

Despicable Me 2010 2160p UHD Blu-ray HEVC DTS-HD MA 7.1-SUPERSIZE

Disc Title: Despicable.Me.2010.COMPLETE.UHD.BLURAY-SUPERSIZE
Disc Size: 36,275,503,066 bytes
Protection: AACS2
BD-Java: Yes
Extras: Ultra HD
BDInfo: 0.5.8.7 (compatible layout created by DVDFab 10.0.6.4)

PLAYLIST REPORT:

Name: 00974.MPLS
Length: 1:34:40.049 (h:m:s.ms)
Size: 31,781,468,160 bytes
Total Bitrate: 44.76 Mbps

(*) Indicates included stream hidden by this playlist.

VIDEO:

Codec Bitrate Description
----- ------- -----------
MPEG-H HEVC Video 30311 kbps 2160p / 23.976 fps / 16:9 / Main 10 Profile 5.1 High / 4:2:0 / 10 bits / HDR / BT.2020 /
* MPEG-H HEVC Video 30311 kbps 1080p / 23.976 fps / 16:9 / Main 10 Profile 5.1 High / 4:2:0 / 10 bits / Dolby Vision / BT.2020 /

AUDIO:

Codec Language Bitrate Description
----- -------- ------- -----------
DTS:X/DTS-HD Master Audio English 6679 kbps 7.1-X / 48 kHz / 6679 kbps / 24-bit (DTS Core: 5.1 / 48 kHz / 1509 kbps / 24-bit)
DTS Audio English 256 kbps 2.0 / 48 kHz / 256 kbps / 24-bit
DTS Audio Spanish 768 kbps 5.1 / 48 kHz / 768 kbps / 24-bit
DTS Audio French 768 kbps 5.1 / 48 kHz / 768 kbps / 24-bit
Dolby Digital Audio English 192 kbps 2.0 / 48 kHz / 192 kbps / Dolby Surround

SUBTITLES:

Codec Language Bitrate Description
----- -------- ------- -----------
Presentation Graphics English 30.633 kbps
Presentation Graphics Spanish 23.814 kbps
Presentation Graphics French 26.588 kbps
Presentation Graphics Spanish 1.215 kbps
Presentation Graphics French 1.322 kbps

FILES:

Name Time In Length Size Total Bitrate
---- ------- ------ ---- -------------
00001.M2TS 0:00:00.000 0:01:18.161 284,479,488 29,117 kbps
00249.M2TS 0:01:18.161 0:35:57.196 12,161,808,384 45,102 kbps
00251.M2TS 0:37:15.358 0:03:49.020 1,398,816,768 48,862 kbps
00250.M2TS 0:41:04.378 0:53:35.670 17,936,363,520 44,622 kbps

Download

Despicable.Me.2010.COMPLETE.UHD.BLURAY-SUPERSIZE.rar - 33.8 GiB

No Comments Yet.

Leave a comment